Family Guy S14E19 720p HDTV x264-AVS[rartv]

seeders: 119
leechers: 52
updated:
Added by z0n3212.58M in TV
Torrent verified. Downloaded 18,556 times.

DownloadFast Safe Anonymous
movies, software, shows...
  • View all Family Guy episodes
  • Episode title: Run, Chris, Run
  • Episode: S14E19
  • Air date: 15 May 2016
  • IMDb link: 0182576
  • TVmaze link: Family Guy
  • Original run: 31 January 1999 — Present
  • Summary:

    In a wacky Rhode Island town, a dysfunctional family strive to cope with everyday life as they are thrown from one crazy scenario to another.

    Written by Thhaque414.94K
Available in versions: 1080p720p480pHDTVWEBRipx264x265iPhone
Family Guy S14E19 720p HDTV x264-AVS[rartv] (Size: 302.67 MB)
  Family.Guy.S14E19.720p.HDTV.x264-AVS.mkv 302.67 MB
  rarbg.com.txt 34 bytes
  Family.Guy.S14E19.720p.HDTV.x264-AVS.nfo 58 bytes

Description


http://rarbg.to
Family.Guy.S14E19.720p.HDTV.x264-AVS[rartv]

image
Screens :

image
Mediainfo :

Video
ID : 1
Format : AVC
Format/Info : Advanced Video Codec
Format profile : [email protected]
Format settings, CABAC : Yes
Format settings, ReFrames : 5 frames
Codec ID : V_MPEG4/ISO/AVC
Duration : 20mn 52s
Bit rate : 1 539 Kbps
Width : 1 280 pixels
Height : 718 pixels
Display aspect ratio : 16:9
Frame rate mode : Constant
Frame rate : 23.976 (24000/1001) fps
Color space : YUV
Chroma subsampling : 4:2:0
Bit depth : 8 bits
Scan type : Progressive
Bits/(Pixel*Frame) : 0.070
Stream size : 230 MiB (76%)
Writing library : x264 core 148 r2692 64f4e24
Encoding settings : cabac=1 / ref=5 / deblock=1:0:0 / analyse=0x3:0x113 / me=umh / subme=8 / psy=1 / psy_rd=1.00:0.00 / mixed_ref=1 / me_range=16 / chroma_me=1 / trellis=1 / 8x8dct=1 / cqm=0 / deadzone=21,11 / fast_pskip=1 / chroma_qp_offset=-2 / threads=18 / lookahead_threads=3 / sliced_threads=0 / nr=0 / decimate=1 / interlaced=0 / bluray_compat=0 / constrained_intra=0 / bframes=3 / b_pyramid=2 / b_adapt=2 / b_bias=0 / direct=3 / weightb=1 / open_gop=0 / weightp=2 / keyint=250 / keyint_min=23 / scenecut=40 / intra_refresh=0 / rc_lookahead=50 / rc=crf / mbtree=1 / crf=18.0 / qcomp=0.60 / qpmin=0 / qpmax=69 / qpstep=4 / ip_ratio=1.40 / aq=1:1.00
Default : Yes
Forced : No
Color range : Limited
Matrix coefficients : BT.709

Audio
ID : 2
Format : AC-3
Format/Info : Audio Coding 3
Mode extension : CM (complete main)
Format settings, Endianness : Big
Codec ID : A_AC3
Duration : 20mn 52s
Bit rate mode : Constant
Bit rate : 448 Kbps
Channel(s) : 6 channels
Channel positions : Front: L C R, Side: L R, LFE
Sampling rate : 48.0 KHz
Frame rate : 31.250 fps (1536 spf)
Compression mode : Lossy
Stream size : 66.9 MiB (22%)
Default : Yes
Forced : No

Related Torrents

torrent name size files age seed leech

Sharing Widget


Download torrent
302.67 MB
seeders:98
leechers:39
Family Guy S14E19 720p HDTV x264-AVS[rartv]



To share this torrent use the code below and insert it into comments, status messages, forum posts or your signature.

Torrent: Family Guy S14E19 720p HDTV x264-AVS[rartv]

Trackers

tracker name
udp://tracker.openbittorrent.com:80/announce
udp://tracker.coppersurfer.tk:6969/announce
udp://glotorrents.pw:6969/announce
http://mgtracker.org:2710/announce
http://tracker.calculate.ru:6969/announce
http://announce.xxx-tracker.com:2710/announce
http://thetracker.org/announce
http://tracker.mg64.net:6881/announce
http://explodie.org:6969/announce
udp://tracker.opentrackr.org:1337/announce
µTorrent compatible trackers list

Locations

name
KickassTorrents
Torrent hash: 9EA9BA85477D7C9302938A10E7C4076D5CCC20F0

All Comments

audio
9/10
video
9/10
please, leave only comments related to that torrent
Sign In

SUBTITLES http://subscene.com/subtitles/family-guy-fourteenth-season/english/1335590
audio: 10video: 10
Thank you z0n3212.58M thumb_up
Awesome upload biggrin
audio: 10video: 10
Great quality, thank you.
audio: 10video: 9
Great copy, thanks thumb_up
audio: 10video: 10
Good quality, thanks
Show More All

User Opinions

Naskal6714, CypryanV3929, $hadow[PT]1733, lihtster1296, skinninja1135, zybor953, heroix597, takanuva200399, durdentyler177, dottedt20 ... And 333 more
Report a bug Open chat
Sitemap(成年コミック) [雑誌] COMIC X-EROS 72 | Pre Lit Red Wooden Christmas Advent Calendar Decoration With Drawers | OfficeSuite : Free Office + PDF Editor v9.0.8839 APK modded apk